<?xml version="1.0" standalone="no"?>
<!DOCTYPE svg PUBLIC "-//W3C//DTD SVG 1.1//EN" "http://www.w3.org/Graphics/SVG/1.1/DTD/svg11.dtd">
<svg xmlns="http://www.w3.org/2000/svg">
<metadata>Copyright (C) 2024 by original authors @ fontello.com</metadata>
<defs>
<font id="fontello" horiz-adv-x="1000" >
<font-face font-family="fontello" font-weight="400" font-stretch="normal" units-per-em="1000" ascent="850" descent="-150" />
<missing-glyph horiz-adv-x="1000" />
<glyph glyph-name="double-right" unicode="&#xe809;" d="M623 332l-453-452c-12-11-27-16-43-16-16 1-31 7-42 19-12 11-18 26-19 42 0 16 5 32 16 44l363 363-363 363c-7 6-12 13-15 21-4 8-6 16-6 25 0 8 1 16 5 24 3 8 7 15 13 22 6 6 14 10 22 13 7 4 16 5 24 5 9 0 17-2 25-6 8-3 15-8 20-15l453-452z m427 0l-452-452c-12-11-28-16-44-16-16 1-31 7-42 19-11 11-18 26-18 42-1 16 5 32 15 44l364 363-364 363c-6 6-11 13-15 21-3 8-5 16-5 25-1 8 1 16 4 24s8 15 14 22c6 6 13 10 21 13 8 4 16 5 25 5 8 0 17-2 25-6 7-3 14-8 20-15l452-452z" horiz-adv-x="1071.3" />

<glyph glyph-name="double-left" unicode="&#xe815;" d="M454 353l481 480c12 10 27 17 44 17 37 0 67-30 67-67 0-17-6-32-16-44l0 0-387-386 387-387c14-12 23-30 23-51 0-37-30-67-67-67-20 0-39 10-51 24l0 0z m-454 0l481 480c11 9 26 14 41 14 37 0 67-30 67-67 0-15-5-30-14-41l0 0-386-386 386-387c16-12 26-32 26-53 0-37-30-67-67-67-21 0-41 10-53 26l0 0z" horiz-adv-x="1051.8" />

<glyph glyph-name="arrow-up" unicode="&#xe818;" d="M940-62q-3 0-6 0c-33 3-58 30-58 64 0 2 0 4 0 6l0 0 61 706-724 3c-35 0-64 29-64 64s29 64 64 64v0l794-3c0 0 0 0 0 0 36 0 64-29 64-64 0-2 0-3 0-5l0 0-68-776c-3-33-30-59-63-59h0z m-876-88c0 0 0 0-1 0-35 0-64 29-64 64 0 19 8 35 21 47l0 0 935 872c12 11 27 17 44 17 36 0 64-28 64-64 0-18-7-35-20-47l0 0-935-872c-11-11-27-17-43-17-1 0-1 0-1 0h0z" horiz-adv-x="1071.3" />

<glyph glyph-name="clock" unicode="&#xe900;" d="M652 250l-134 101v204c0 21-16 38-37 38s-37-17-37-38v-223c0-12 5-23 15-30l149-112c6-5 14-7 22-7 11 0 22 5 30 15 12 16 9 40-8 52z m-171 566c-265 0-481-216-481-481 0-265 216-481 481-481 265 0 481 216 481 481 0 265-216 481-481 481z m0-888c-224 0-406 183-406 407 0 224 182 406 406 406 224 0 406-182 406-406 0-224-182-407-406-407z" horiz-adv-x="1000" />

<glyph glyph-name="bell" unicode="&#xe901;" d="M829 123l-58 83c-7 11-12 24-12 38v236c0 89-35 174-98 237-62 62-148 98-236 98-89 0-174-36-237-98s-98-148-98-237v-236c0-14-4-27-12-38l-57-83c-9-9-15-21-17-34-2-13 0-26 5-38 5-12 14-22 25-29s23-11 36-11h191c7-38 28-72 58-96 30-24 67-38 106-38 38 0 76 14 106 38 30 24 50 58 58 96h190c13 0 26 4 37 11s19 17 24 29c5 12 7 25 5 38-2 13-8 25-16 34z m-404-179c-21 0-41 7-58 19-17 12-30 29-37 48h189c-7-19-20-36-36-48-17-12-38-19-58-19z m-355 134c2 2 3 3 4 5l59 84c15 23 24 49 24 77v236c0 71 28 139 78 189s119 79 190 79c71 0 139-28 189-79s78-118 78-189v-236c1-28 9-54 25-77l58-84c1-2 3-3 4-5h-709z" horiz-adv-x="875" />

<glyph glyph-name="manual" unicode="&#xe902;" d="M469 827c-137 0-247-111-247-247s110-248 247-248c136 0 247 111 247 248s-111 247-247 247z m27-385h-55v165h55v-165z m0 220h-55v55h55v-55z m-55-382c-144 13-260 127-273 272h-56v-498h224c39 0 76-15 105-40v266z m329 272c-13-145-129-259-274-272v-266c29 25 67 40 105 40h225v498h-56z m111-55v-498h-280c-27 0-54-11-74-31l-58-58-58 58c-20 20-47 31-75 31h-279v498h-57v-553l270 0c50 0 97-20 133-55h132c6 4 46 55 121 55h282v553h-57z" horiz-adv-x="950.2" />

<glyph glyph-name="fb" unicode="&#xe903;" d="M360-118v441h147l23 172h-170v109c0 50 13 84 85 84h91v154c-44 4-88 7-133 6-131 0-221-80-221-227v-126h-148v-172h148v-441l178 0z" horiz-adv-x="562.5" />

<glyph glyph-name="google-plus" unicode="&#xe904;" d="M1543 431h-127v128h-128v-128h-128v-127h128v-128h128v128h127l0 127z m-1034-144h314c-15-58-46-111-89-153-44-42-98-71-157-83-59-12-121-8-177 13s-107 57-144 104c-37 48-60 105-66 165s4 121 30 175c27 54 68 100 119 132s110 49 170 49c43 1 85-7 124-23s73-42 102-73l112 112c-89 91-210 143-338 145-95 0-188-28-267-81s-141-129-178-217c-36-88-46-185-27-279s64-179 132-246c67-68 153-114 247-132 93-19 190-10 278 27 88 37 164 98 217 178 53 79 81 172 81 268v80h-483v-161z" horiz-adv-x="1571.3" />

<glyph glyph-name="instagram" unicode="&#xe905;" d="M702 815h-463c-61 0-120-24-164-68s-67-102-68-163v-463c1-62 25-121 68-164s103-68 164-68h463c62 0 120 25 164 68 43 43 68 102 68 164v463c0 61-25 120-68 163-44 44-102 68-164 68v0z m155-694c-1-41-17-81-46-110-29-29-68-45-109-45h-463c-41 0-80 16-109 46s-45 68-45 109v463c0 41 16 80 45 109s68 45 109 45h463c41 0 80-16 109-45 29-29 46-68 46-109v-463h0z m-136 424c32 0 58 26 58 58s-26 58-58 58c-32 0-58-26-58-58s26-58 58-58z m-250 39c-46 0-91-14-129-39s-68-62-85-104c-18-43-22-89-13-134s31-86 63-119c32-32 74-54 118-63s92-4 134 13c43 18 79 47 104 85 26 39 39 83 39 129 0 31-6 61-17 89s-29 53-51 75c-21 21-47 38-75 50s-58 18-88 18z m0-386c-31 0-61 9-86 26s-45 41-57 69c-12 28-15 59-9 89s21 58 42 79c22 22 50 37 80 42s60 3 89-8c28-12 52-32 69-57s26-55 26-86c0-41-16-80-45-109-29-29-68-45-109-45z" horiz-adv-x="941.4" />

<glyph glyph-name="media1" unicode="&#xe906;" d="M829 423c67-38 67-135 0-173l-665-384c-66-39-150 9-150 86v768c0 77 84 125 150 87l665-384z" horiz-adv-x="900.4" />

<glyph glyph-name="x" unicode="&#xe907;" d="M21 836l395-544-398-441h90l348 386 282-386h305l-418 574 370 411h-89l-321-356-259 356h-305z m131-68h140l619-850h-140l-619 850z" horiz-adv-x="1066.4" />

<glyph glyph-name="youtube" unicode="&#xe908;" d="M1331 691c-8 28-23 53-43 74s-46 35-74 43c-105 29-522 29-522 29s-416 0-521-28c-28-8-53-23-74-44s-35-46-43-74c-19-106-28-213-27-321-1-107 8-214 27-320 8-28 22-53 43-74 21-21 46-36 74-43 106-29 521-29 521-29s417 0 521 28c29 7 54 22 75 43 20 20 35 46 43 74 19 106 28 213 27 320 2 108-8 215-27 321v1z m-771-520v399l347-200-347-199z" horiz-adv-x="1417" />

<glyph glyph-name="logout" unicode="&#xe909;" d="M14 51c0-77 63-140 140-140h354c78 0 141 63 141 140v71c0 19-16 35-35 35s-35-16-35-35v-71c0-38-32-70-71-70h-354c-38 0-70 32-70 70v620c0 39 32 70 70 70h354c39 0 71-31 71-70v-70c0-20 15-36 35-36s35 16 35 36v70c0 78-63 141-141 141h-354c-77 0-140-63-140-141v-620z m345 308c0-19 15-35 35-35h477c19 0 35 16 35 35s-16 36-35 36h-477c-20 0-35-16-35-36z m402-141c13-13 36-13 49 0l79 79c0 0 0 0 0 0 35 35 35 90 0 125 0 0 0 0 0 0l-79 79c-13 13-36 13-49 0s-14-37 0-50l78-79c7-7 7-18 0-25l-78-79c-14-14-14-36 0-50z" horiz-adv-x="933.6" />

<glyph glyph-name="plus" unicode="&#xe90a;" d="M498 807c-252 0-457-205-457-457s205-457 457-457c251 0 456 205 456 457s-205 457-456 457z m0-843c-213 0-386 173-386 386 0 213 173 386 386 386s385-173 385-386c0-213-173-386-385-386z m176 425h-141v141c0 20-16 35-35 35s-36-15-36-35v-141h-141c-20 0-35-16-35-36s15-35 35-35h141v-142c0-19 16-35 36-35s35 16 35 35v142h141c20 0 36 16 36 35s-16 36-36 36z" horiz-adv-x="1000" />

<glyph glyph-name="annouce" unicode="&#xe90b;" d="M370-89c26 0 51 10 69 29 19 18 29 43 29 69 0 46 0 98 0 98 0 18-15 33-33 33h-131c-18 0-32-15-32-33v-98c0-26 10-51 28-69 19-19 44-29 70-29z m393 767v-683l1-1c3-20 13-40 27-54 19-19 44-29 70-29s51 10 69 29c19 18 29 43 29 69v655c0 26-10 51-29 69-18 19-43 29-69 29s-51-10-70-29c-14-15-24-34-27-54l-1-1z m-66-60c-39-35-90-75-141-106-41-25-82-45-115-45h-169v-262h169c33 0 74-19 115-44 51-31 102-72 141-106v563z m-491-151h-65c-55 0-98-44-98-98v-65c0-55 43-99 98-99h65v262z" horiz-adv-x="1000" />

<glyph glyph-name="mode" unicode="&#xe90c;" d="M628 779c31-81 38-170 20-255s-61-163-123-225c-61-62-139-104-225-122s-173-12-255 19c27-71 71-134 128-184s126-84 200-100c75-16 151-13 224 8s139 61 193 115c53 53 93 120 114 192s24 150 8 224c-16 74-50 143-100 200-49 58-113 102-184 128z m-423-348c12 45 36 86 70 119s74 57 118 70c-44 13-85 37-118 70s-58 74-70 119c-13-45-37-86-70-119s-74-57-119-70c45-13 86-37 119-70s57-74 70-119z" horiz-adv-x="922.9" />

<glyph glyph-name="book" unicode="&#xe90d;" d="M104 618h-33c-19 0-34-15-34-33v-583c0-18 15-33 34-33h348c-56 29-136 44-199 44h-37c-44 0-79 36-79 79v526z m829 0v-526c0-43-35-79-79-79h-37c-63 0-142-15-199-44h348c19 0 34 15 34 33v583c0 18-15 33-34 33h-33z m-448-635v659l-3 2c-73 42-178 64-262 64h-37c-19 0-34-15-34-34v-582c0-19 15-34 34-34h37c73 0 165-18 228-54l37-21z m67 659v-659l37 21c63 36 155 54 228 54h37c19 0 34 15 34 34v582c0 19-15 34-34 34h-37c-84 0-189-22-262-64l-3-2z" horiz-adv-x="1000" />

<glyph glyph-name="calendar" unicode="&#xe90e;" d="M169-84h638c67 0 121 54 121 121v605c0 67-54 121-121 121h-48v34c0 18-15 34-34 34s-34-16-34-34v-34h-406v34c0 18-16 34-34 34s-34-16-34-34v-34h-48c-67 0-121-54-121-121v-605c0-67 54-121 121-121z m-54 726c0 29 24 53 54 53h48v-34c0-18 15-34 34-34s34 16 34 34v34h406v-34c0-18 15-34 34-34s34 16 34 34v34h48c29 0 54-24 54-53v-99h-746v99z m0-167h746v-438c0-29-24-53-54-53h-638c-30 0-54 24-54 53v438z" horiz-adv-x="1000" />

<glyph glyph-name="calendar-start" unicode="&#xe90f;" d="M394 226l-14-85c-2-12 3-24 12-31 10-7 23-8 33-2l77 40 77-40c4-3 9-4 14-4 7 0 13 2 18 6 10 7 15 19 13 31l-15 85 62 61c9 8 12 20 8 32-4 11-13 19-25 21l-86 13-38 77c-5 11-16 17-28 17-12 0-23-6-28-17l-39-77-85-13c-12-2-22-10-25-21-4-12-1-24 7-32l62-61z m476 504h-98v54c0 25-20 46-45 46h-7c-25 0-46-21-46-46v-54h-346v54c0 25-20 46-45 46h-7c-25 0-45-21-45-46v-54h-97c-52 0-93-42-93-93v-652c0-51 41-93 93-93h736c51 0 93 42 93 93v652c0 51-42 93-93 93z m-12-733h-712v508h712v-508z" horiz-adv-x="1000" />

<glyph glyph-name="call" unicode="&#xe910;" d="M286 649c2-35 8-69 18-101l-47-48c-17 48-27 97-30 149h59z m387-471c33-10 67-16 102-18v-58c-52 3-102 13-149 29l47 47z m-349 550h-138c-21 0-39-18-39-40 0-368 299-666 667-666 21 0 39 17 39 39v137c0 21-18 39-39 39-49 0-96 8-140 22-4 2-8 2-12 2-11 0-20-4-28-11l-86-86c-111 56-202 147-259 258l86 86c11 11 14 27 10 40-14 44-22 91-22 140 0 22-18 40-39 40z" horiz-adv-x="1000" />

<glyph glyph-name="campaign" unicode="&#xe911;" d="M750 350c0-22 17-39 39-39h78c22 0 40 17 40 39s-18 39-40 39h-78c-22 0-39-18-39-39z m-55-189c-13-17-10-41 7-54 21-15 43-32 64-47 17-13 41-10 54 8 0 0 0 0 0 0 13 18 10 42-7 54-21 16-43 33-64 48-17 13-41 9-54-8 0-1 0-1 0-1z m126 471c0 0-1 0-1 1-13 17-37 20-54 7-20-15-43-32-63-47-17-13-21-38-8-55 0 0 1 0 1 0 13-18 37-21 54-8 21 15 43 32 63 48 17 12 20 37 8 54z m-463-164h-157c-43 0-79-36-79-79v-78c0-43 36-79 79-79h39v-117c0-22 18-40 39-40s39 18 39 40v117h40l196-117v470l-196-117z m294-118c0 52-23 99-59 131v-262c36 32 59 79 59 131z" horiz-adv-x="1000" />

<glyph glyph-name="email" unicode="&#xe912;" d="M892 610c0 43-35 78-78 78h-628c-43 0-78-35-78-78v-471c0-43 35-78 78-78h628c43 0 78 35 78 78v471z m-78 0l-314-196-314 196h628z m0-471h-628v392l314-196 314 196v-392z" horiz-adv-x="1000" />

<glyph glyph-name="fax" unicode="&#xe913;" d="M775 512h-40v196h-392v-196h-30c-22 24-53 39-87 39-66 0-118-52-118-118v-274c0-65 52-118 118-118 34 0 65 16 87 39h579v314c0 65-52 118-117 118z m-510-353c0-22-18-39-39-39s-40 17-40 39v274c0 22 18 40 40 40s39-18 39-40v-274z m157 471h235v-118h-235v118z m392-471h-471v274h432c21 0 39-17 39-39v-235z m-196 157c21 0 39 17 39 39s-18 39-39 39c-22 0-40-17-40-39s18-39 40-39z m117 0c22 0 40 17 40 39s-18 39-40 39c-21 0-39-17-39-39s18-39 39-39z m-117-118c21 0 39 18 39 39s-18 40-39 40c-22 0-40-18-40-40s18-39 40-39z m117 0c22 0 40 18 40 39s-18 40-40 40c-21 0-39-18-39-40s18-39 39-39z m-196 196h-157v-196h157v196z" horiz-adv-x="1000" />

<glyph glyph-name="file" unicode="&#xe914;" d="M535 556c-36 0-65 29-65 65v213h-331c-56 0-102-46-102-102v-744c0-56 46-102 102-102h518c56 0 102 46 102 102v568h-224z m-346-389h134c16 0 28-12 28-27s-12-28-28-28h-134c-16 0-28 12-28 28s12 27 28 27z m-28 121c0 15 12 28 28 28h407c15 0 28-13 28-28 0-16-13-28-28-28h-407c-16 0-28 12-28 28z m435 176c15 0 28-13 28-28s-13-28-28-28h-407c-16 0-28 13-28 28s12 28 28 28h407z m-70 157c0-5 4-9 9-9h212c-6 9-12 18-20 25l-178 169c-7 7-15 12-23 16v-201h0z" horiz-adv-x="782.2" />

<glyph glyph-name="home" unicode="&#xe915;" d="M951 399c0 0 0 0-1 0l-388 389c-17 16-39 25-62 25s-45-9-62-25l-388-389c0 0-1 0-1 0-34-34-34-90 0-124 16-16 37-25 59-25 1-1 1-1 2-1h16v-286c0-56 46-102 102-102h152c16 0 28 12 28 28v224c0 26 21 47 47 47h90c26 0 47-21 47-47v-224c0-16 12-28 28-28h152c56 0 102 46 102 102v286h15c23 0 45 10 62 26 34 34 34 90 0 124z" horiz-adv-x="1000" />

<glyph glyph-name="info" unicode="&#xe916;" d="M853 698c-186 187-489 187-676 0-187-187-187-489 0-676 187-187 490-187 676 0 187 187 187 489 0 676z m-275-546c0-34-28-62-63-62s-62 28-62 62v250c0 34 28 62 62 62s63-28 63-62v-250z m-64 356c-36 0-60 26-59 57-1 33 23 58 60 58 37 0 60-25 61-58-1-31-24-57-62-57z" horiz-adv-x="1000" />

<glyph glyph-name="manual1" unicode="&#xe917;" d="M494 827c-137 0-247-111-247-247s110-248 247-248c136 0 247 111 247 248s-111 247-247 247z m27-385h-55v165h55v-165z m0 220h-55v55h55v-55z m-55-382c-144 13-260 127-273 272h-56v-498h224c39 0 76-15 105-40v266z m329 272c-13-145-129-259-274-272v-266c29 25 67 40 105 40h225v498h-56z m111-55v-498h-280c-27 0-54-11-74-31l-58-58-58 58c-20 20-47 31-75 31h-279v498h-57v-553l270 0c50 0 97-20 133-55h132c6 4 46 55 121 55h282v553h-57z" horiz-adv-x="1000" />

<glyph glyph-name="media" unicode="&#xe918;" d="M879 423c67-38 67-135 0-173l-665-384c-66-39-150 9-150 86v768c0 77 84 125 150 87l665-384z" horiz-adv-x="1000" />

<glyph glyph-name="setting" unicode="&#xe919;" d="M946 252l-88 70c1 10 2 23 2 36s-1 26-2 36l89 70c16 13 20 36 10 55l-92 159c-10 18-31 27-53 19l-105-42c-20 15-41 27-62 37l-16 110c-3 21-21 37-43 37h-184c-22 0-40-16-43-36l-16-111c-21-10-41-22-62-37l-105 42c-20 8-43-1-53-19l-92-159c-11-18-6-42 10-56l89-69c-2-13-2-25-2-36s0-23 2-36l-89-70c-16-13-21-36-10-55l92-159c10-18 31-27 53-19l105 42c20-15 41-27 62-37l16-111c3-21 21-37 43-37h184c22 0 40 16 43 37l16 111c21 10 41 22 62 37l105-42c5-2 10-3 16-3 15 0 30 8 37 21l92 160c10 19 6 42-11 55z m-452-55c-89 0-161 72-161 161s72 160 161 160c88 0 160-72 160-160s-72-161-160-161z" horiz-adv-x="1000" />

<glyph glyph-name="share" unicode="&#xe91a;" d="M782 152c-37 0-70-15-96-38l-348 203c2 12 4 23 4 34s-2 23-4 35l344 201c27-25 62-40 100-40 81 0 147 66 147 147s-66 147-147 147c-81 0-146-66-146-147 0-12 1-23 4-34l-345-201c-26 24-61 39-100 39-81 0-146-65-146-147s65-146 146-146c39 0 74 15 100 39l348-203c-2-10-4-21-4-32 0-79 65-143 143-143 79 0 143 64 143 143 0 79-64 143-143 143z m0 591c27 0 49-22 49-49s-22-49-49-49c-27 0-49 22-49 49s22 49 49 49z m-587-440c-27 0-49 22-49 48s22 49 49 49c27 0 49-22 49-49s-22-48-49-48z m587-344c-27 0-49 22-49 49 0 27 22 49 49 49 27 0 49-22 49-49 0-27-22-49-49-49z" horiz-adv-x="1000" />

<glyph glyph-name="visibility" unicode="&#xe91b;" d="M489 624c-196 0-363-122-431-294 68-172 235-294 431-294s364 122 432 294c-68 172-235 294-432 294z m0-490c-108 0-196 88-196 196s88 196 196 196c109 0 197-88 197-196 0-108-88-196-197-196z m0 314c-65 0-117-53-117-118s52-118 117-118c66 0 118 53 118 118s-52 118-118 118z" horiz-adv-x="1000" />

<glyph glyph-name="down-open" unicode="&#xf004;" d="M0 533q0 25 18 43t44 18 42-18l305-303 304 303q18 18 43 18t43-18 18-43-18-43l-390-391-391 391q-18 19-18 43z" horiz-adv-x="817.4" />

<glyph glyph-name="up-open" unicode="&#xf005;" d="M0 167q0 26 18 43l391 391 390-391q17-17 17-43t-17-44q-18-17-44-17t-43 17l-303 305-305-305q-18-17-43-17t-43 17q-18 18-18 44z" horiz-adv-x="816.4" />

<glyph glyph-name="right-open" unicode="&#xf006;" d="M0 0q0 25 18 43l305 304-305 304q-18 18-18 44t18 43 44 18 43-18l390-391-390-391q-19-18-43-18t-44 18q-18 18-18 44z" horiz-adv-x="495.1" />

<glyph glyph-name="left-open" unicode="&#xf007;" d="M0 353l391 391q18 18 43 18 24 0 43-18 18-18 18-44t-18-43l-304-304 304-305q18-17 18-43t-18-43q-18-18-43-18t-43 18z" horiz-adv-x="495.1" />
</font>
</defs>
</svg>
